* Dettagli Torrent   globale  | Commenti (0) 


- La truffa del secolo - Carbone (2017).720p.H264.italian.french.Ac3-5.1.sub.ita-MIRCrew -


Download via torrent:
Categoria bittorrent BDRip
Descrizione
La truffa del secolo - Carbone (2017).720p.H264.italian.french.Ac3-5.1.sub.ita-MIRCrew


by www.mircrew-releases.com


NO FOUND ONLY ORIGINAL RELEASE

My release is always in double track audio italian and Original audio
for select it use VLC or dvd player home
not use wmp

La truffa del secolo - Carbone (2017)

Quality MIRCrew on HD 720p da  2,0 gb








GENERE: Thriller, Drammatico
ANNO: 2017
REGIA: Olivier Marchal
PAESE: Francia, Belgio
DURATA: 112 Min



Benoît Magimel, Laura Smet, Gérard Depardieu, Michaël Youn, Patrick Catalifo, Fred Epaud, Moussa Maaskri



Un imprenditore in grosse difficoltà economiche e finanziarie, per salvare la propria situazione decide di aggirare lo stato francese sfruttando una scappatoia nel sistema di tassazione del carbone. Una truffa che lo condurrà in una spirale discendente fatta di banditismo finanziario e corruzione.



Danger of losing his business, Anthony Roca, an ordinary man, develops a scam that will become the heist of the century. Overtaken by the crime, he will have to deal with betrayal, murder and settling.










General
Unique ID                                : 274308331945222317696117960931996314290 (0xCE5DDCF0C4803F09AE10773A4303AAB2)
Complete name                            : Carbone - La truffa del secolo (2017).720p.h264.ita.fre.sub.ita-MIRCrew\Carbone - La truffa del secolo (2017).720p.h264.ita.fre.sub.ita-MIRCrew.mkv
Format                                   : Matroska
Format version                           : Version 4 / Version 2
File size                                : 2.02 GiB
Duration                                 : 1h 43mn
Overall bit rate                         : 2 788 Kbps
Movie name                               : MIRCrew
Encoded date                             : UTC 2018-10-01 11:52:41
Writing application                      : mkvmerge v26.0.0 ('In The Game') 64-bit
Writing library                          : Lavf54.63.100

Video
ID                                       : 1
Format                                   : AVC
Format/Info                              : Advanced Video Codec
Format profile                           : [email protected]
Format settings, CABAC                   : Yes
Format settings, ReFrames                : 2 frames
Codec ID                                 : V_MPEG4/ISO/AVC
Duration                                 : 1h 43mn
Bit rate                                 : 1 900 Kbps
Width                                    : 1 280 pixels
Height                                   : 528 pixels
Display aspect ratio                     : 2.40:1
Frame rate mode                          : Variable
Frame rate                               : 24.000 fps
Color space                              : YUV
Chroma subsampling                       : 4:2:0
Bit depth                                : 8 bits
Scan type                                : Progressive
Bits/(Pixel*Frame)                       : 0.117
Stream size                              : 1.33 GiB (66%)
Title                                    : MIRCrew
Writing library                          : x264 core 130 r2273
Encoding settings                        : cabac=1 / ref=2 / deblock=1:0:0 / analyse=0x1:0x131 / me=hex / subme=7 / psy=1 / psy_rd=1.00:0.00 / mixed_ref=0 / me_range=16 / chroma_me=1 / trellis=1 / 8x8dct=0 / cqm=0 / deadzone=21,11 / fast_pskip=1 / chroma_qp_offset=-2 / threads=6 / lookahead_threads=1 / sliced_threads=0 / nr=0 / decimate=1 / interlaced=0 / bluray_compat=0 / constrained_intra=0 / bframes=3 / b_pyramid=0 / b_adapt=1 / b_bias=0 / direct=3 / weightb=1 / open_gop=0 / weightp=2 / keyint=240 / keyint_min=24 / scenecut=40 / intra_refresh=0 / rc_lookahead=40 / rc=abr / mbtree=1 / bitrate=1900 / ratetol=1.0 / qcomp=0.60 / qpmin=10 / qpmax=69 / qpstep=4 / vbv_maxrate=24000 / vbv_bufsize=24000 / nal_hrd=none / ip_ratio=1.40 / aq=1:1.00
Language                                 : Italian
Default                                  : Yes
Forced                                   : No
DURATION                                 : 01:43:46.292000000
NUMBER_OF_FRAMES                         : 149431
NUMBER_OF_BYTES                          : 1471004831
_STATISTICS_WRITING_APP                  : mkvmerge v26.0.0 ('In The Game') 64-bit
_STATISTICS_WRITING_DATE_UTC             : 2018-10-02 10:41:39
_STATISTICS_TAGS                         : BPS DURATION NUMBER_OF_FRAMES NUMBER_OF_BYTES

Audio #1
ID                                       : 2
Format                                   : AC-3
Format/Info                              : Audio Coding 3
Mode extension                           : CM (complete main)
Codec ID                                 : A_AC3
Duration                                 : 1h 43mn
Bit rate mode                            : Constant
Bit rate                                 : 448 Kbps
Channel(s)                               : 6 channels
Channel positions                        : Front: L C R, Side: L R, LFE
Sampling rate                            : 48.0 KHz
Bit depth                                : 16 bits
Compression mode                         : Lossy
Delay relative to video                  : -5ms
Stream size                              : 333 MiB (16%)
Title                                    : ita Ac3 5.1
Language                                 : Italian
Default                                  : Yes
Forced                                   : No
DURATION                                 : 01:43:47.232000000
NUMBER_OF_FRAMES                         : 194601
NUMBER_OF_BYTES                          : 348724992
_STATISTICS_WRITING_APP                  : mkvmerge v26.0.0 ('In The Game') 64-bit
_STATISTICS_WRITING_DATE_UTC             : 2018-10-02 10:41:39
_STATISTICS_TAGS                         : BPS DURATION NUMBER_OF_FRAMES NUMBER_OF_BYTES

Audio #2
ID                                       : 3
Format                                   : AC-3
Format/Info                              : Audio Coding 3
Mode extension                           : CM (complete main)
Codec ID                                 : A_AC3
Duration                                 : 1h 43mn
Bit rate mode                            : Constant
Bit rate                                 : 448 Kbps
Channel(s)                               : 6 channels
Channel positions                        : Front: L C R, Side: L R, LFE
Sampling rate                            : 48.0 KHz
Bit depth                                : 16 bits
Compression mode                         : Lossy
Delay relative to video                  : -5ms
Stream size                              : 333 MiB (16%)
Title                                    : fre Ac3 5.1
Language                                 : French
Default                                  : No
Forced                                   : No
DURATION                                 : 01:43:46.368000000
NUMBER_OF_FRAMES                         : 194574
NUMBER_OF_BYTES                          : 348676608
_STATISTICS_WRITING_APP                  : mkvmerge v26.0.0 ('In The Game') 64-bit
_STATISTICS_WRITING_DATE_UTC             : 2018-10-02 10:41:39
_STATISTICS_TAGS                         : BPS DURATION NUMBER_OF_FRAMES NUMBER_OF_BYTES





Info: Per scaricare devi usare un client come uTorrent o Transmission
AnnounceURL
udp://tracker.coppersurfer.tk:6969/announce
Hash e9504dd143ee943e888145b9527cc163b27e0ed7
Peers seeds: 92 , leech: 41
Size 2.02 GB
Completato 504x
Aggiunto 08.10.18 - 15:10:34
Uploader   robbyrs
Votazione (Voti: 0)


Condividi questo bittorrent:


html/blog:


bbcode/forum:




Aggiungi Commento


counter